phpmybittorrent - bringing p2p to the fourth dimension

 

PTC Tracker: Apr 25 2017, 17:19:40 Users:7656 Joined Last 24hrs:0 Torrents:11256 Peers:18 Seeders: 7 Leechers: 11 Shares:7.56 TB Speed:0.00 B Last Downloads
User Menu

Torrent Index

 


Log in

 

User Name

Password

Security Code
Security Code

Register
Lost your password?


Please Support US
0% (0 of 150 Dollars)
May 2016 0%
Goal: $150
Collected: $0

Currents!
Economic Update: US Housing Crisis
Lenin's Failed Revolution
Noam Chomsky on Trump and the decline of the American Superpower
Jeremy Scahill on the Military Industrial Complex, Donald Trump, Ramstein & Anti-War Movements
World’s 8 Richest Have as Much Wealth as Bottom Half, Oxfam Says
One Belt, One Road
Slavoj Zizek on Trump and Brexit - BBC News
A Theory of China’s ‘Miracle’
"Fixing Capitalism v. Moving to Another System" with Richard D. Wolff: Jan Monthly Economic Update 2017
From Primitive to Substantive Equality-via Slavery by István Mészáros
Economic Update: Xmas vs Economic Realities [2016.12.22]
Global Capitalism: Trump's Plans for Jobs, Taxes, Trade [DECEMBER 2016]
Inside Amazon: Wrestling Big Ideas in a Bruising Workplace
The Election of Donald Trump by Samir Amin
Marx as a Food Theorist
Jeremy Scahill: Mike Pence Has "Militant Agenda" Against Women, the Poor, Immigrants, LGBTQ People
Real Time Season Finale
Naomi Klein: It was the Democrat's embrace of neoliberalism that won it for Trump
Chris Hedges: The Surrender of the Liberal Left to Neoliberalism Gave Us Proto-fascism
Greenwald: Why did Trump Win?
Imperialism in the Twenty-First Century
The ABCs of the Economic Crisis: What Working People Need to Know
America's Apology Tour by Obama!
GOP, a Candidate for Most Dangerous Organization in Human History-Noam Chomsky
The Occupation of the American Mind (3/3)
Climate Change & Nuclear Proliferation-Noam Chomsky
The Occupation of the American Mind (2/3)
The Occupation of the American Mind (1/3)
Economic Update: The Idea of Revolution
Theory of Working-Class Relevance Today!
Flint is a Hate Crime!
How Capitalism is Killing Itself

Last 10 Donors
Thanks to following last donors helping out.
AgoCF Donor
$
183 ws guest 5
183 ws W 25
185 ws guest 1
186 ws anonymous 2
187 ws anonymous 10
200 ws guest 10
201 ws guest 2
209 ws philipjcow 7
216 ws mrlptc 10
217 ws guest 10
d=day, w=week
m=min, h=hour
CF=Country Flag

All-Time Top Donors
Donor
$
Olivier M.100
nojusticei .50
Supaiku .50
Marco H.50
ndillinger .42
gatitotara .30
anonymous L.30
guest H.25
Maria S.25
W H.25
Goran T.20
TERESA M.20
A D B.20
Froghammer .20
wageslave8 .20
guest t.20
anonymous S.15
deutschexp .15
joseph g.10
Michael R.10
Douglas S.10
Kenny K.10
John H.10
Bernt F.10
William P.10

Syndication
  • RSS
  • Tweeter

Wall_Street_Money_Never_Sleeps_(2010)_R5_XviD MAX.5904593.TPB :: The Progressive Torrents Community
Torrent Info

S15197

L18332

Total peers50839


Wall Street Money Never Sleeps (2010) R5 XviD MAX 5904593 TPB




Actions

DownloadStats updated less than 30min ago

Size

1.20 GB

Date/time added:

2010-10-24 23:15:37


Description (required)

Wall Street Money Never Sleeps (2010) R5
Format : AVI
Format/Info : Audio Video Interleave
Format profile : OpenDML
File size : 1.19 GiB
Duration : 2h 7mn
Overall bit rate : 1 338 Kbps
Writing application : VirtualDubMod 1.5.10.2 (build 2542/release)
Writing library : VirtualDubMod build 2542/release
Original source form : MAX TORRENTZ
Copyright : SIGISMUNT

Video
ID : 0
Format : MPEG-4 Visual
Format profile : Simple@L3
Format settings, BVOP : No
Format settings, QPel : No
Format settings, GMC : No warppoints
Format settings, Matrix : Default (H.263)
Codec ID : XVID
Codec ID/Hint : XviD
Duration : 2h 7mn
Bit rate : 1 143 Kbps
Width : 720 pixels
Height : 304 pixels
Display aspect ratio : 2.35:1
Frame rate : 25.000 fps
Resolution : 24 bits
Colorimetry : 4:2:0
Scan type : Progressive
Bits/(Pixel*Frame) : 0.209
Stream size : 1.02 GiB (85%)
Writing library : XviD 1.2.1 (UTC 2008-12-04)

Audio
ID : 1
Format : MPEG Audio
Format version : Version 1
Format profile : Layer 3
Codec ID : 55
Codec ID/Hint : MP3
Duration : 2h 7mn
Bit rate mode : Constant
Bit rate : 192 Kbps
Channel(s) : 2 channels
Sampling rate : 48.0 KHz
Resolution : 16 bits
Stream size : 175 MiB (14%)
Alignment : Aligned on interleaves
Interleave, duration : 636 ms (15.89 video frames)
Interleave, preload duration : 216 ms
Writing library : LAME3.98.2

Sources: R5 DVDRIP+PROPER Studio Audio (perfect sync-great a/v quality),sample
is included
[23]
http://www.imdb.com/title/tt1027718/

Screens:
[24]
http://www.postimg.com/image/23000/22895.jpg
[25]
http://www.postimg.com/image/23000/22896.jpg
[26]
http://www.postimg.com/image/23000/22897.jpg
[27]
http://www.postimg.com/image/23000/22898.jpg

ScreenCaps:
[28]
http://www.postimg.com/image/23000/22899.jpg

Wall Street Money Never Sleeps (2010) R5 XviD-MAX Torrent Free Download
[29]
http://thepiratebay.org/user/extremezone/0/7

How To Get Your Maxspeed (uTorrent)

Torrent Client - Preferences - Bandwidth - Number of connections - Set aprox. 5
00 for each
Torrent Client - Preferences - BiTorrent - Protocol Encryption - Forced
Bandwidth Allocation - High (Set download/upload limit - Unlimited)
Stop Other Active Torrents - Start downloading and wait for connections.
Enjoy and Seed for at least 1:1 ratio. Dont forget to say thanks/leave reviews
.
Greets to all actual/future p2p/scene QUALITY groups and affiliate websites.
Dont trust IMDb robot or bad ratings,always watch some trailers first.
Ignore stupid comments/fake/mislabeled/no-DVDrips/CAM/TS/RAR uploads.
Please spread this release/torrent to your friends/forums/etc.
If you need translation subs visit some subtitles sites.
Report if you see online streaming or other spam links.
Recommended movie player VLC PLAYER.


Info Hash

b1008b2f9688453c6dd3255cced4cd91e7cce4c3


Tracker

http://tracker.thepiratebay.org/announce


Additional Trackers

Group 0


Group 1


Group 2


Group 3


Group 4


Group 5


Group 6


Group 7


Group 8


Group 9


Group 10


Group 11


Group 12


Group 13


Group 14


Group 15


Group 16


Group 17


Group 18



Type

Movies/Video/Documentaries

Number of files

8

Uploaded by

Unknown


Seen

302

Downloaded

26

Completed

50839


Torrent Rating

Rate

No Rating (Log in to vote)


Files


free site statistics