phpmybittorrent - bringing p2p to the fourth dimension

 

PTC Tracker: Mar 24 2019, 10:39:48 Users:7806 Joined Last 24hrs:0 Torrents:11492 Peers:0 Seeders: Leechers: Shares:7.86 TB Speed:0.00 B Last Downloads
User Menu

Torrent Index

 


Log in

 

User Name

Password

Security Code
Security Code

Register
Lost your password?


Please Support US
0% (0 of 150 Dollars)
Mar 2019 0%
Goal: $150
Collected: $0

Last 10 Donors
Thanks to following last donors helping out.
AgoCF Donor
$
43 ws PTOR 10
44 ws Lee 20
282 ws guest 5
282 ws W 25
284 ws guest 1
286 ws anonymous 2
286 ws anonymous 10
300 ws guest 10
301 ws guest 2
309 ws philipjcow 7
d=day, w=week
m=min, h=hour
CF=Country Flag

All-Time Top Donors
Donor
$
Olivier M.100
nojusticei .50
Supaiku .50
Marco H.50
ndillinger .42
gatitotara .30
anonymous L.30
guest H.25
Maria S.25
W H.25
Goran T.20
TERESA M.20
A D B.20
Froghammer .20
wageslave8 .20
guest t.20
Lee .20
anonymous S.15
deutschexp .15
joseph g.10
Michael R.10
Douglas S.10
Kenny K.10
John H.10
Bernt F.10

Syndication
  • RSS
  • Tweeter

Peter Watkins - La commune (Paris, 1871) :: The Progressive Torrents Community
Torrent Info

S5

L0

Total peers1589


Peter Watkins - La commune (Paris, 1871)




Actions

DownloadStats updated less than 30min ago

Size

2.82 GB

Date/time added:

2018-12-16 19:56:04


Description (required)

Noted filmmaker and media critic Peter Watkins directs this mammoth six-hour-long look at the legendary Paris Commune of 1871. Following the humiliating defeat of France in the Franco-Prussian War, the reign of Napoleon III collapsed in the resulting public foment. While a new regime headed under the Government of National Defense tried to shore up power, a band of commoners took the reigns of power for themselves and created the Paris Commune, a government defiantly separate from the state operating under a sort of proto-Marxist ethos. Inevitably, the Commune was brutally suppressed by French troops. Watkins' treatment of the event juxtaposes the present with the past -- modern day CNN-style reporting with historical fact.

Part 1
General
Complete name : La.Commune.Paris.1871.(2000).DVDRIP-MKO CD1.avi
Format : AVI
Format/Info : Audio Video Interleave
File size : 1.40 GiB
Duration : 2h 44mn
Overall bit rate : 1 224 Kbps
Writing application : VirtualDubMod 1.5.10.2 (build 2540/release)
Writing library : VirtualDub build 32593/release
Video #0
ID : 0
Format : MPEG-4 Visual
Format profile : [email protected]
Format settings, BVOP : No
Format settings, QPel : No
Format settings, GMC : No warppoints
Format settings, Matrix : Default (H.263)
Codec ID : DIVX
Codec ID/Info : Project Mayo
Codec ID/Hint : DivX 4
Duration : 2h 44mn
Bit rate : 1 086 Kbps
Width : 624 pixels
Height : 384 pixels
Display aspect ratio : 1.625
Frame rate : 25.000 fps
Resolution : 24 bits
Colorimetry : 4:2:0
Scan type : Progressive
Bits/(Pixel*Frame) : 0.181
Stream size : 1.25 GiB (89%)
Writing library : FFmpeg0.4.6b4669
Audio #1
ID : 1
Format : MPEG Audio
Format version : Version 1
Format profile : Layer 3
Codec ID : 55
Codec ID/Hint : MP3
Duration : 2h 44mn
Bit rate mode : Constant
Bit rate : 128 Kbps
Channel(s) : 2 channels
Sampling rate : 48.0 KHz
Resolution : 16 bits
Stream size : 150 MiB (10%)
Alignment : Aligned on interleaves
Interleave, duration : 40 ms (1.00 video frame)
Interleave, preload duration : 504 ms
Writing library : LAME3.98
Encoding settings : -m j -V 4 -q 3 -lowpass 17 -b 128

Part 2
General
Complete name : La.Commune.Paris.1871.(2000).DVDRIP-MKO CD2.avi
Format : AVI
Format/Info : Audio Video Interleave
File size : 1.41 GiB
Duration : 3h 1mn
Overall bit rate : 1 111 Kbps
Writing application : VirtualDubMod 1.5.10.2 (build 2540/release)
Writing library : VirtualDub build 32593/release
Video #0
ID : 0
Format : MPEG-4 Visual
Format profile : [email protected]
Format settings, BVOP : No
Format settings, QPel : No
Format settings, GMC : No warppoints
Format settings, Matrix : Default (H.263)
Codec ID : DIVX
Codec ID/Info : Project Mayo
Codec ID/Hint : DivX 4
Duration : 3h 1mn
Bit rate : 973 Kbps
Width : 624 pixels
Height : 384 pixels
Display aspect ratio : 1.625
Frame rate : 25.000 fps
Resolution : 24 bits
Colorimetry : 4:2:0
Scan type : Progressive
Bits/(Pixel*Frame) : 0.162
Stream size : 1.23 GiB (88%)
Writing library : FFmpeg0.4.6b4669
Audio #1
ID : 1
Format : MPEG Audio
Format version : Version 1
Format profile : Layer 3
Codec ID : 55
Codec ID/Hint : MP3
Duration : 3h 1mn
Bit rate mode : Constant
Bit rate : 128 Kbps
Channel(s) : 2 channels
Sampling rate : 48.0 KHz
Resolution : 16 bits
Stream size : 166 MiB (12%)
Alignment : Aligned on interleaves
Interleave, duration : 40 ms (1.00 video frame)
Interleave, preload duration : 504 ms
Writing library : LAME3.98
Encoding settings : -m j -V 4 -q 3 -lowpass 17 -b 128

http://www.imdb.com/title/tt0257497/

French audio; English and Portuguese subtitles

Peter Watkins - La commune (Paris, 1871)


Info Hash

a407b6d8f36d6a5024bb51d699b1d270ccb3674e


Tracker

http://tracker.nwps.ws:6969/announce


Additional Trackers

Group 0


Group 1


Group 2


Group 3


Group 4


Group 5


Group 6


Group 7


Group 8


Group 9


Group 10


Group 11


Group 12


Group 13


Group 14


Group 15


Group 16


Group 17


Group 18


Group 19


Group 20


Group 21


Group 22


Group 23


Group 24


Group 25


Group 26


Group 27


Group 28


Group 29


Group 30


Group 31


Group 32


Group 33


Group 34


Group 35



Type

Movies/Video/Documentaries

Number of files

6

Uploaded by

UnknownUnknown


Seen

120

Downloaded

43

Completed

1589


Torrent Rating

Rate

No Rating (Log in to vote)


Files


free site statistics